#TITLE:Psycho Farm;
#SUBTITLE:;
#ARTIST:m1dy;
#TITLETRANSLIT:;
#SUBTITLETRANSLIT:;
#ARTISTTRANSLIT:;
#CREDIT:;
#BANNER:Psycho Farm-bn.png;
#BACKGROUND:Psycho Farm-bg.png;
#LYRICSPATH:;
#CDTITLE:;
#MUSIC:psychofarm.mp3;
#OFFSET:-0.408;
#SAMPLESTART:35.151;
#SAMPLELENGTH:11.840;
#SELECTABLE:YES;
#BPMS:0.000=223.100;
#STOPS:;
#BGCHANGES:;
// cache tags:
#FIRSTBEAT:15.000;
#LASTBEAT:732.000;
#SONGFILENAME:Songs/Music V.I.P ^_^/psychofarm/psychofarm.sm;
#HASMUSIC:1;
#HASBANNER:1;
#MUSICLENGTH:198.243;
// end cache tags

//---------------dance-single - TD_GenoCid3----------------
#NOTES:
     dance-single:
     TD_GenoCid3:
     Challenge:
     14:
     1.000,1.000,0.938,0.262,1.000,2128.000,186.000,52.000,0.000,32.000:

0000
0000
0000
0000
,
0000
0000
0000
0000
,
0000
0000
0000
0000
,
0000
0000
0000
0000
0000
0000
1100
1100
,
0110
0110
0011
0011
0110
0110
1100
1100
,
0110
0110
0011
0011
0110
0110
1100
1100
,
1010
1010
1001
1001
1100
1100
1010
1010
,
1001
0000
1001
0000
0101
0000
0101
0000
0011
0000
0001
0010
0100
0000
1001
0000
,
1100
1100
1010
1010
1001
1001
0110
0110
,
1001
0000
0000
0000
1001
0000
0000
0000
1100
0000
0000
0000
1100
0000
0000
0000
1010
0000
0000
0000
1100
0000
0000
0001
0000
0000
0000
0000
1000
0000
0000
0000
,
0001
0000
0000
0010
0000
0000
0000
1000
0000
1000
0000
0200
0000
0300
0000
0010
0000
0001
0000
1000
0000
0000
0000
0000
1001
0000
0000
0000
0101
0000
0000
0000
,
0101
0000
0101
0000
0001
0010
0100
1000
0100
0010
0100
1000
0100
0000
1100
0000
,
0100
0110
0010
0010
0011
0001
1010
0010
,
1010
1000
1001
0100
1100
0010
0110
0001
,
0011
1000
1001
0001
0101
1010
1010
1100
,
1100
0000
1001
0000
1001
0000
1100
0000
0001
0010
0100
0000
0110
0000
1100
0000
,
0110
0011
1001
0101
0110
1010
1100
0110
,
1100
1010
0110
0011
1001
0101
1010
0101
,
1100
0000
0000
0110
0000
0000
1100
0000
0000
0110
0000
0000
0011
0000
0000
1001
0000
0010
0100
1000
0000
1000
0000
0000
,
1000
0100
0010
0001
1000
0100
0010
0001
1000
0100
0010
0000
0100
0000
1000
0000
,
0010
0100
0001
0010
1000
0111
1000
0100
,
0010
0001
0100
0010
0001
1110
1000
0001
,
0010
0100
0001
0100
1000
1011
0100
1000
,
0010
0001
0100
0010
1000
0111
1000
0100
,
0010
0001
0100
0010
1000
1110
0001
0010
,
0100
0010
1000
0010
0001
1101
0010
1000
,
0100
0000
0000
0010
0000
0000
0100
0000
0000
0010
0000
0000
0001
0000
0000
0010
0100
1000
0010
0001
0000
0000
0001
0000
,
0000
0000
0001
0000
0000
0000
0000
0000
0000
0000
1000
0000
0000
0000
0000
0000
0000
0000
0000
0000
0100
0000
0000
0000
0000
0000
0000
0000
1010
0000
0000
0000
0000
0000
0000
0000
0001
0000
0000
0010
0000
0000
0100
0000
0000
1000
0000
0000
,
0100
0010
0100
0010
0001
1000
0001
1000
0010
1000
0010
0100
0010
1000
0100
0010
,
0001
0010
0100
1000
0010
0100
0001
1000
0010
0100
1000
0100
0010
0100
0010
0001
,
1000
0010
0100
0010
0100
0001
0100
0010
0100
1000
0100
0010
0001
0010
0100
0010
,
0001
0010
0100
1000
0010
0100
0001
1000
0010
0100
0010
1000
0100
0010
0001
0010
,
0100
1000
0001
0100
0001
0100
1000
0100
1000
0100
0010
0100
0010
0001
0010
0001
,
1000
0010
0100
0010
0001
0100
0010
1000
0100
0010
0001
0010
0100
1000
0100
1000
,
0010
0000
0000
0001
0000
0000
0100
0000
0000
0010
0000
0000
1000
0000
0000
0100
0000
0000
0010
0000
0000
0100
0000
0000
0001
0000
0010
0000
0100
0000
1000
0000
0001
0000
0010
0000
0100
0000
1000
0000
0001
0000
0010
0000
0100
0000
1000
0000
,
0001
0000
0010
0000
0100
0000
1000
0000
0001
0000
0010
0000
0100
0000
1000
0000
0001
0000
0010
0000
0100
0000
1000
0000
0001
0000
0000
0100
0000
0000
0010
0000
0000
1000
0000
0000
0100
0000
0000
0010
0000
0000
0001
0000
0000
0100
0000
0000
,
0010
0100
1000
0100
0010
0001
0010
0100
0010
1000
0100
0010
0100
1000
0010
0100
,
0001
0010
0100
1000
0100
0010
0100
1000
0100
0010
0001
0010
0100
0010
0100
0001
,
1000
0100
0010
0100
0010
0001
1000
0010
0100
0010
1000
0001
1000
0100
0010
0100
,
0001
0000
0010
0000
0100
0000
1000
0000
0001
0000
0010
0000
0100
0000
1000
0000
0001
0000
0010
0000
0100
0000
1000
0000
0001
0000
0000
0010
0000
0000
0001
0000
0000
0010
0000
0000
0001
0000
0000
1000
0000
0000
0001
0000
0000
1000
0000
0000
,
0001
0100
0010
0100
0010
1000
0100
1000
0100
0010
0001
0010
0001
1000
0010
1000
,
0010
0100
0001
0100
0001
0010
1000
0010
1000
0100
0001
0100
0001
1000
0100
0010
,
0001
0000
0000
0010
0000
0000
0100
0000
0000
1000
0000
0000
0010
0000
0000
0100
0000
0000
0010
0000
0000
0100
0000
0000
1000
0000
0100
0000
1000
0000
0000
0000
0001
0000
0000
0000
1000
0000
0000
0000
0001
0000
0000
0000
1000
0000
0000
0000
,
0002
0000
0000
0000
2000
0000
0000
0000
0010
3103
0010
0100
1000
0100
1000
0100
,
0010
0001
0010
0001
0100
1000
0100
1000
0010
0100
0010
0100
1000
0100
1000
0100
,
0001
0100
0001
0100
1000
0100
0010
0001
0010
0100
1000
0100
0010
0100
1000
0100
,
0010
0001
0100
0010
0100
0010
1000
0100
0010
0100
1000
0100
0010
0001
0100
0010
,
1000
0100
0010
0001
0010
0001
1000
0100
1000
0100
0010
0001
1000
0001
0100
0010
,
0100
0001
1000
0100
0010
0100
1000
0001
0100
0010
0100
0001
1000
0100
0010
0001
,
0010
0100
1000
0100
0010
0100
1000
0010
0100
0001
0100
0001
0010
0001
1000
0001
,
0100
0001
0100
0001
0010
0100
1000
0100
1000
0100
0010
0100
1000
0100
0010
0000
,
0001
0000
0010
0000
0100
0000
1000
0000
0001
0000
0010
0000
0100
0000
1000
0000
0001
0000
0010
0000
0100
0000
1000
0000
0000
0000
0000
0010
0000
0000
0100
0000
0000
0010
0000
0000
0100
0000
0000
0010
0000
0000
0100
0000
0000
0010
0000
0000
,
0100
0010
0100
0010
0100
0010
0100
0010
1000
0100
0010
0001
0010
0100
1000
0100
,
0010
0001
0010
0100
1000
0001
0010
0100
0010
0100
0010
0100
0010
0100
0010
0100
,
0010
0100
0010
0100
0010
0100
1000
0100
0010
0001
0010
0100
1000
0100
0010
0001
,
0010
0100
1000
0100
0010
0001
0100
0010
0100
0010
0100
0010
0100
0010
0100
0010
,
0100
0010
0100
0010
0100
1000
0100
0010
0001
0010
0100
1000
0100
0010
0001
0010
,
0100
1000
0100
0010
0001
0010
0100
0010
0100
0010
0100
0010
0100
0010
0100
0010
,
0100
0000
0000
0010
0000
0000
0100
0000
0000
0010
0000
0000
1000
0000
0100
0000
0010
0000
0001
0000
1000
0000
0100
0000
0010
0000
0001
0000
1000
0000
0100
0000
0010
0000
0001
0000
1000
0000
0100
0000
0010
0000
0001
0000
1000
0000
0100
0000
,
0010
0001
1000
0100
0010
0001
1000
0000
0000
0001
0000
0000
1000
0000
0000
0010
0000
0000
0100
0000
0000
0001
0000
0000
,
1000
0001
1010
0100
1000
0010
0001
0100
,
0010
0100
1001
0100
0010
0100
1000
0001
,
0100
0010
0101
1000
0100
0010
0001
1000
,
0010
0001
0110
0100
1000
0010
0100
0001
,
0100
1000
0101
0010
0001
0100
1000
0010
,
0001
0100
1010
0001
0100
1000
0100
0010
,
0001
1001
0000
0000
0000
0000
0000
0000
,
0000
0000
0000
0000
1000
0010
0100
0000
0001
1000
0001
0100
0001
0100
0001
1000
,
0001
0010
0001
0000
1100
0000
1100
0000
0010
0001
1000
0000
0001
1000
0001
0100
,
0001
0010
0001
0000
1100
0000
1100
0000
0010
0100
1000
0000
1000
0100
0010
0100
,
1000
0100
0010
0000
0101
0000
0101
0000
1000
0010
0100
0000
0100
0010
0001
0010
,
0100
0010
0001
0000
1100
0000
1100
0000
0100
0010
0001
0000
0100
1000
0100
0010
,
0100
1000
0100
0000
0011
0000
0011
0000
0100
1000
0010
0000
0100
0001
1000
0100
,
0010
0001
1000
0000
0011
0000
1100
0000
0001
0010
0100
0000
1000
0100
0010
0100
,
0010
0000
0000
0000
0000
1000
0000
0000
1000
0000
0000
0001
0000
0010
0000
0100
0000
0000
0000
1001
0000
0000
0000
1100
,
0000
0000
0000
0000
,
0000
0000
0000
0000
,
0000
1000
0000
0000
,
0000
1010
0100
1010
0100
1010
0100
1010
,
0100
1001
0010
1001
0010
1001
0010
1001
,
0010
1100
0001
1100
0001
1100
0001
1100
,
0001
0110
1000
0110
1000
0110
1000
0110
,
1000
0110
0001
0110
0001
0110
0001
0110
,
0001
1001
0100
1001
0100
1001
0010
1001
,
0010
1001
0101
0010
0101
0010
0101
0010
,
0101
0010
1100
0001
1100
0001
1100
0001
,
1100
0002
0000
0000
0000
0000
0000
0000
0000
0000
0000
0000
,
0000
0000
0000
0000
,
0000
0000
0000
0000
,
0000
0000
0000
0000
,
0000
0000
0000
0000
,
0000
0000
0000
0000
,
1100
0003
0000
0000
0000
0000
0000
0000
0000
0000
0000
0000
,
0000
0000
0000
0000
,
0001
0010
0100
1000
0100
0010
0001
0010
0100
1000
0100
1000
0100
0010
0001
0010
,
0001
1000
0100
1000
0100
0001
0010
0100
1000
0001
0010
0100
1000
0100
0010
0100
,
0010
1000
0100
0010
0001
1000
0100
0010
0001
0100
0010
0100
0010
0100
1000
0100
,
1000
0100
0001
0100
0001
0100
0010
0100
0010
0100
1000
0100
1000
0100
0001
0100
,
0001
1000
0001
1000
0100
0010
0001
1000
0100
0010
0001
0010
0100
1000
0001
0010
,
0100
1000
0100
0010
0100
0010
1000
0100
0010
0001
0010
0100
1000
0100
0010
0001
,
1000
0100
0010
0001
0010
0100
1000
0001
0010
0100
1000
0001
0010
0100
0010
0100
,
0001
0000
0000
0010
0000
0000
0100
0000
1000
0000
0001
0000
0010
0000
0100
0000
1000
0000
0001
0000
0010
0000
0100
0000
1000
0000
0001
0000
0010
0000
0100
0000
1000
0000
0001
0000
0010
0000
0100
0000
1000
0000
0001
0000
0010
0000
0100
0000
,
1000
0001
1000
0001
1000
0100
1000
0100
0010
0001
0010
0001
1000
0001
1000
0100
,
1000
0100
0010
0100
0010
0001
0010
0001
0100
0001
0100
0010
1000
0010
1000
0100
,
0010
0001
1000
0100
1000
0001
0010
0100
1000
0001
0010
0001
0010
0100
0010
0001
,
0010
0100
1000
0100
1000
0100
0010
0100
1000
0100
0010
0001
0100
0010
0100
0001
,
0010
0100
1000
0100
1000
0100
0010
0001
1000
0100
0010
0001
0100
0010
0100
0010
,
0001
0010
0100
1000
0100
0010
0001
0010
0100
0010
0100
1000
0100
1000
0100
0010
,
0100
0010
0001
0010
0001
1000
0001
1000
0001
0100
0010
0100
0010
1000
0100
0010
,
0001
1000
0100
0010
0001
0010
0100
1000
0100
0010
0001
1000
0001
1000
0001
2000
,
0002
0000
0000
0000
3003
0000
2000
0000
0000
0000
3220
0000
0000
0000
1000
0031
,
1300
0100
0010
0001
1000
0100
1000
0100
0001
0010
0100
1000
0001
0010
0001
0020
,
2000
0000
0000
0000
3030
0000
0020
0000
0000
0000
2230
0000
0000
0000
0010
0001
,
3310
0001
1000
0001
1000
0001
0010
0100
1000
0100
0010
0001
0010
0001
1000
0002
,
2000
0000
0000
0000
3003
0000
0200
0000
0000
0000
0322
0000
0000
0000
1033
0100
,
0010
0001
0100
0010
0100
0010
0001
0010
0100
1000
0100
0010
0001
0010
0001
2000
,
0200
0000
0000
0000
3300
0000
0020
0000
0000
0000
2230
0000
0000
0000
0001
0010
,
3301
0010
0100
1000
0100
0010
0100
1000
0100
0010
0001
0010
0100
0010
0100
0001
,
0010
0100
1000
0100
0010
0100
0010
1000
0100
0010
0001
0010
0001
1000
0001
1000
,
0100
1000
0100
1000
0001
1000
0001
1000
0010
1000
0010
0100
0010
0100
0001
0100
,
0001
1000
0100
0010
0100
1000
0100
0010
0001
0010
0100
0010
0100
1000
0100
0010
,
0001
1000
0100
0010
0001
0100
0001
0100
0001
0100
1000
0100
1000
0100
0010
0001
,
0010
0001
0010
0001
0010
0100
1000
0100
0010
0100
1000
0100
0010
0001
0100
0010
,
0100
0001
0100
0010
0100
0001
0010
0100
1000
0100
0010
0001
0010
0100
1000
0100
,
0010
0001
0100
0010
0100
0010
1000
0100
1000
0100
0010
0100
0010
0100
0001
1000
,
0100
0000
0010
0000
0001
0000
1000
0000
0100
0000
0010
0000
0001
0000
1000
0000
0100
0000
0010
0000
0001
0000
1000
0000
0100
0000
0010
0000
0001
0000
1000
0000
0100
0000
0010
0000
0001
0000
0000
1000
0000
0000
0100
0000
0000
0010
0000
0000
,
0100
0010
0001
0010
0100
0010
0100
1000
0100
0010
0001
1000
0100
0010
0001
0010
,
0100
1000
0100
0010
0100
0010
0100
1000
0100
1000
0100
0010
0100
0010
0001
0010
,
0001
1000
0001
1000
0100
0001
0100
0001
1000
0100
0010
0001
1000
0100
0010
0001
,
0100
0010
0100
0010
0001
0010
0100
1000
0100
0010
0100
0010
1000
0100
0010
0001
,
0100
0010
0100
0010
0001
0010
0100
1000
0100
0010
0100
1000
0100
0010
0001
0010
,
0100
0010
0001
0010
0100
1000
0100
0010
0001
1000
0100
0010
0001
0010
0001
1000
,
0100
1000
0100
0010
0001
0010
0001
0100
0001
0100
0001
1000
0100
1000
0100
0010
,
0100
0010
0100
1000
0100
0010
0001
0010
0100
1000
0001
2001
0000
0000
0000
0000
,
0000
0000
0000
0000
0000
0000
0000
0000
0000
0000
0000
3201
0000
0000
0000
0000
,
0000
0000
0000
0000
0000
0000
0000
0000
0000
0000
0000
2010
0000
0000
0300
0000
,
0000
0000
0000
0000
0000
0000
0000
0000
0000
0000
0000
3012
0000
0000
0000
0000
,
0000
0000
0000
0000
0000
0000
0000
0000
0000
0000
0000
1203
0000
0000
0000
0000
,
0000
0000
0000
0000
0000
0000
0000
0000
0000
0000
0000
2301
0000
0000
0000
0000
,
0000
0000
0000
0000
0000
0000
0000
0000
0000
0000
0000
0102
3000
0000
0000
0000
,
0000
0000
0000
0000
0000
0000
0000
0000
0000
0000
0000
1000
0103
1000
0100
0000
,
1000
0000
0000
0000
0000
0110
0000
0000
1100
0000
0100
0000
0010
0000
0001
0000
,
1000
0010
0100
0001
1000
1100
0010
0100
,
0010
0001
1000
0100
0010
1100
0001
1000
,
0100
0010
0100
0001
0100
0011
1000
0100
,
0010
0001
0100
0010
0001
1100
0010
0001
,
0100
0010
1000
0100
0010
1100
0001
0100
,
0010
1000
0100
0010
2222
3333
0000
0000
,
0000
0000
0000
0000
1001
1001
1001
1001
,
1000
0001
1000
0001
2000
3002
2003
3002
2003
3002
0003
0010
0100
1000
0100
1000
,
0100
0010
0100
0010
0001
0010
0001
0010
0100
1000
0100
1000
0100
0010
0100
0010
,
1000
0100
0010
0001
0010
0100
1000
0100
1000
0100
0010
0001
1000
0100
0010
0001
,
0010
0100
0010
0100
1000
0100
0010
0001
1000
0100
0010
0001
0100
0010
0100
0010
,
0001
0010
0001
0010
0100
1000
0100
0010
0100
0010
0100
0010
0100
0010
0100
0010
,
0100
0010
0100
0010
0100
1000
0100
0010
0001
0010
0100
1000
0100
0010
0001
0010
,
0100
1000
0100
0010
0001
0010
0100
1000
0100
0010
0100
0010
0100
0010
0100
0010
,
0100
0010
0100
0010
0100
1000
0100
0010
0001
0010
0100
1000
0100
0010
0001
1000
,
0001
0000
0010
0000
0100
0000
1000
0000
0001
0000
0010
0000
0100
0000
1000
0000
0001
0000
0010
0000
0100
0000
1000
0000
0001
0000
0010
0000
0100
0000
1000
0000
0000
0100
0000
0000
0010
0000
0000
0001
0000
0000
0100
0000
0000
0001
0000
0000
,
0100
0001
0100
0010
0100
0010
1000
0100
0010
0001
0010
0100
1000
0001
1000
0001
,
1000
0100
0010
0001
1000
0100
0010
0001
0010
0100
1000
0100
0010
0100
1000
0010
,
1000
0001
1000
0001
0100
0010
0001
0010
1000
0100
0010
0100
1000
0100
0010
0001
,
1000
0001
1000
0001
0100
0001
0100
0010
1000
0010
1000
0100
0010
0001
1000
0100
,
0010
0001
1000
0001
1000
0001
0100
0001
0100
0010
0100
0010
0100
1000
0100
1000
,
0001
1000
0100
0010
0001
1000
0001
0100
0010
0100
0010
1000
0100
0010
0001
1000
,
0100
0010
0001
1000
0001
1000
0001
0010
1100
0011
1100
0011
1100
0000
0000
0000
,
1100
0000
0000
0000
1100
0000
0001
0000
0100
0001
1000
0001
1000
0001
0100
0001
,
0100
0001
0010
0001
1000
0100
0010
0100
0001
0100
1000
0010
0100
0001
1000
0100
,
0001
0100
1000
0001
1000
0001
1000
0001
0100
0001
0010
0100
1000
0100
0001
0100
,
1000
0100
0010
0001
0010
0100
1000
0100
0010
0100
0010
0001
0010
0100
1000
0001
,
0010
0100
1000
0010
0100
0010
0100
0001
0100
0010
0100
0010
1000
0100
0010
0100
,
0010
1000
0100
0010
0001
0010
0100
1000
0001
0010
0100
1000
0100
0010
0100
0010
,
1000
0100
0010
0001
1000
0100
0010
0001
0010
0100
1000
0001
0010
0100
1000
0100
,
0010
0000
0000
0100
0000
0000
0010
0000
0000
0001
0000
0000
0010
0000
0000
0100
0000
0000
1000
0000
0000
0010
0000
0000
0001
0000
1000
0000
0001
0000
1000
0000
0001
0000
1000
0000
0001
0000
1000
0000
0001
0000
1000
0000
0001
0000
1000
0000
,
0100
0010
0001
0010
0100
0010
0100
1000
0100
0010
0001
0010
0100
1000
0100
0001
,
0010
0100
1000
0100
0010
0100
1000
0001
0010
0100
1000
0001
0010
0001
0010
0100
,
1000
0100
0001
0100
0010
0100
1000
0100
1000
0100
1000
0100
0010
0100
1000
0100
,
0001
0000
0000
0100
0000
0000
1000
0000
0000
0100
0000
0000
0010
0000
0000
0100
0000
0000
0010
0000
0000
0001
0000
0000
0100
0000
0000
0010
0000
0000
1000
0000
0000
0100
0000
0000
0001
0000
0010
0000
0100
0000
1000
0000
0001
0000
0010
0000
,
0100
0000
1000
0000
0001
0000
0010
0000
0100
0000
1000
0000
0100
0000
0000
0010
0000
0000
0001
0000
0000
1000
0000
0000
0010
0000
0000
1000
0000
0000
0100
0000
0000
0010
0000
0000
0100
0000
0000
1000
0000
0000
0100
0000
0000
0010
0000
0000
,
1000
0010
0100
0010
0001
0010
0100
1000
0100
0010
0100
1000
0100
0010
1000
0010
,
0001
0010
0100
1000
0001
0010
0100
1000
0010
0100
1000
0100
0001
0010
1000
0010
,
0100
0001
1000
0010
0100
0001
1000
0001
0100
0001
0010
0001
2000
0000
0000
0000
,
0200
0000
0000
0000
0000
0000
0000
0000
0000
0000
0000
0000
0000
0000
0000
0000
0000
0000
0000
0000
0000
0000
0000
0000
0000
0000
0000
0000
0000
0000
0000
0000
0000
0000
0000
0000
0000
0000
0000
0000
0000
0000
0000
0000
0000
0000
0000
0000
0000
0000
0000
0000
0000
0000
0000
0000
0000
0000
0000
0000
0000
0000
0000
0000
0300
0000
0000
0000
3000
0000
0000
0000
2222
0000
0000
0000
0000
0000
0000
0000
0000
0000
0000
0000
0000
0000
0000
0000
0000
0000
0000
0000
0000
0000
0000
0000
0000
0000
0000
0000
0000
0000
0000
0000
0000
0000
0000
0000
0000
0000
0000
0000
0000
0000
0000
0000
0000
0000
0000
0000
0000
0000
0000
0000
0000
0000
0000
0000
0000
0000
0000
0000
0000
0000
0000
0000
0000
0000
0000
0000
0000
0000
0000
0000
0000
0000
0000
0000
0000
0000
0000
0000
0000
0000
0000
0000
0000
0000
0000
0000
0000
0000
0000
0000
0000
0000
0000
0000
0000
0000
0000
0000
0000
0000
0000
0000
0000
0000
0000
0000
0000
0000
0000
3000
0000
2000
3000
0333
0000
0000
0000
0000
,
2222
0000
0000
0000
,
3333
0000
0000
0000
;
